音像图书论坛

 找回密码
 中文注册
搜索

[16bit] 刘亮鹭-顺流逆流 徐小凤粤语金曲 [24K金碟限量首版]2020年8月 原抓WAV+CUE

[复制链接]
发表于 2020-9-15 17:48:54 | 显示全部楼层 |阅读模式

马上注册,结交更多好友,享用更多功能,让你轻松玩转社区。

您需要 登录 才可以下载或查看,没有帐号?中文注册

x
COVER.jpg

歌手:刘亮鹭
专辑名称:顺流逆流 徐小凤粤语金曲  24K金碟限量首版
出版:广东音像出版社
制作发行:广州力潮时代文化传播有限公司
时间:2020年8月
格式:原抓WAV/CUE/LOG 套图
专辑介绍
经典的歌曲总是让人百听不腻,越听越爱!有人创造经典,也有人用自已的方式演绎经典。在这张专辑里,我们心怀感激,致敬经典!八位著名音乐人的重新编曲,十二位演货家的倾情演奏,温蓉松级的旋律,刘
亮鹭韵味独特的瞅喉,用心用情的演绎,让经典再次重现。
向经典致敬!
曲目:
01 老人与海
02 顺流逆流
03 情比雨丝
04 人生满希望
05 谁又欠了谁
06 一缕情丝
07 随想曲
08 每日怀念你
09 无奈
10 风的季节
11 某夜
12 城市足印


REM DATE 2020
REM DISCID A00BD10C
REM COMMENT "ExactAudioCopy v1.1"
PERFORMER "刘亮鹭"
TITLE "顺流逆流24K"
FILE "刘亮鹭-顺流逆流[首版限量编号24K金碟]  原抓WAV+CUE.wav" WAVE
  TRACK 01 AUDIO
    TITLE "老人与海"
    PERFORMER "刘亮鹭"
    INDEX 01 00:00:00
  TRACK 02 AUDIO
    TITLE "顺流逆流"
    PERFORMER "刘亮鹭"
    INDEX 00 04:36:14
    INDEX 01 04:38:14
  TRACK 03 AUDIO
    TITLE "情比雨丝"
    PERFORMER "刘亮鹭"
    INDEX 00 09:07:73
    INDEX 01 09:09:73
  TRACK 04 AUDIO
    TITLE "人生满希望"
    PERFORMER "刘亮鹭"
    INDEX 00 12:27:29
    INDEX 01 12:29:29
  TRACK 05 AUDIO
    TITLE "谁又欠了谁"
    PERFORMER "刘亮鹭"
    INDEX 00 16:43:35
    INDEX 01 16:45:35
  TRACK 06 AUDIO
    TITLE "一缕情丝"
    PERFORMER "刘亮鹭"
    INDEX 00 20:41:57
    INDEX 01 20:43:57
  TRACK 07 AUDIO
    TITLE "随想曲"
    PERFORMER "刘亮鹭"
    INDEX 00 25:12:45
    INDEX 01 25:14:45
  TRACK 08 AUDIO
    TITLE "每日怀念你"
    PERFORMER "刘亮鹭"
    INDEX 00 29:04:72
    INDEX 01 29:06:72
  TRACK 09 AUDIO
    TITLE "无奈"
    PERFORMER "刘亮鹭"
    INDEX 00 33:02:67
    INDEX 01 33:04:67
  TRACK 10 AUDIO
    TITLE "风的季节"
    PERFORMER "刘亮鹭"
    INDEX 00 36:55:54
    INDEX 01 36:57:54
  TRACK 11 AUDIO
    TITLE "某夜"
    PERFORMER "刘亮鹭"
    INDEX 00 41:07:37
    INDEX 01 41:09:37
  TRACK 12 AUDIO
    TITLE "城市足印"
    PERFORMER "刘亮鹭"
    INDEX 00 45:15:29
    INDEX 01 45:17:29
游客,如果您要查看本帖隐藏内容请回复





提取码.txt

5 Bytes, 阅读权限: 255, 下载次数: 5

售价: 300 音乐币  [记录]

回复

使用道具 举报

发表于 2020-9-16 21:57:23 | 显示全部楼层
刘亮鹭-顺流逆流好听
回复 支持 反对

使用道具 举报

发表于 2020-9-16 22:03:52 | 显示全部楼层
#在这里快速回复#您所在的用户组无法下载或查看附件
回复 支持 反对

使用道具 举报

发表于 2020-9-17 17:47:13 | 显示全部楼层
非常感谢楼主分享
回复 支持 反对

使用道具 举报

发表于 2020-9-17 20:27:08 | 显示全部楼层
我已充了VIP。还说~您所在的用户组无法下载或查看附件?大家解释下
回复 支持 反对

使用道具 举报

您需要登录后才可以回帖 登录 | 中文注册

本版积分规则

QQ|小黑屋|手机版|Archiver|音像图书论坛  

GMT+8, 2020-10-1 05:24 , Processed in 0.171858 second(s), 28 queries .

Powered by Discuz! X3.4

© 2001-2017 Comsenz Inc.

快速回复 返回顶部 返回列表