音像图书论坛

 找回密码
 中文注册
搜索

[16bit/44.1khz] 痛仰乐队(痛苦的信仰) - 这是个问题?2001年 WAV+CUE

[复制链接]
发表于 2021-1-15 12:02:23 | 显示全部楼层 |阅读模式

马上注册,结交更多好友,享用更多功能,让你轻松玩转社区。

您需要 登录 才可以下载或查看,没有帐号?中文注册

x

cover.jpg

艺人:痛苦的信仰
发行日期:2001年
语言: 国语
类别:录音室专集
发行:嚎叫唱片
介质:1 CD
曲目:11 首
简介:
痛苦的信仰由主唱高虎、吉他李豫川、吉他田然、吉他麒麟、贝司张静、鼓手张冰、鼓手迟功伟组成,是一支极具代表性和独特性的说唱金属乐队。不管是早期凶猛直接的rap-core,还是现在把rap-metal工业化、政治化的延长,其鲜明的风格早已深入人心。“哪里有压迫哪里就有反抗”和“你的热血哪去了”等歌词也早已变成了“愤怒青年”们的宣言。
有人说痛苦的信仰的作品有很强的政治色彩,但无可争辩的是他们作品中的批判性和斗争性,这种批判性和斗争性并不一定非得来自政治方面,同时也来自他们对社会的一种责任感和对自身生存的一种完善。因此,痛苦的信仰独特的气质使他们有了一种精神,一种敢于直面一切的精神,一种不仅敢于直面一切而且敢于向一切不公正挥拳的精神,一种不仅敢于直面一切向一切不公正挥拳而且在斗争中决不做那种所谓的“战略性转移“的精神。
2001年5月痛苦的信仰签约嚎叫唱片,9月19日推出首张专辑《这是个问题》。在专辑画册开头我们看到一段源自唐朝首张专辑的文案:“谢谢你对痛苦的信仰以及中国新音乐的支持。我们相信,当你在听这张新专辑的同时,你也参与了一个时代的开始。”
这段文字来,今天我们把乐队名字换一下,没想到是如此贴切,岁月不会让一项伟大的事业失去新血。不同的是今天的痛苦的信仰更加坚决。专辑中的11首歌,其中“哪里有压迫哪里就有反抗”、“这是个问题”、“复制者”是几乎每场演出必演的曲目。有些歌的歌词的精练到了只有口号的地步,但是给人的冲击与力量是强大的。
他们觉得世界上太多不平等、不公正的事物,“这是个问题”,他们有的是沸腾的热血,他们认为:生活不能“象个婊子”,“哪里有压迫哪里就有反抗”!他们要用音乐表达他们“真实的邪念”,那就是:在“中国特色下”的“自由的边缘”、“愤怒”的呐喊:“这是个幌子” ;呐喊:“复制者”“让位”……我们“万岁”!
曲目列表
1. 哪里有压迫哪里就有反抗
2. 愤怒
3. 像个婊子
4. 复制者
5. 万岁
6. 这是个问题
7. 中国特色   
8. 真实的邪念  
9. 让位
10. 自由的边缘
11. 幌子
Exact Audio Copy V1.5 from 20. February 2020

EAC 抓取日志文件从21. 七月 2020, 17:57

痛苦的信仰 / 这是个问题?

使用驱动器  :HL-DT-STDVDRAM GH24NS95  Adapter: 1  ID: 0

读取模式      : 可靠Secure
使用精确流     : 是
清空音频缓存    : 是
使用 C2 指示器 : 否

读取偏移校正:               : 6
读取 Lead-In 和 Lead-Out : 否
用静音填充抓取中丢失偏移的采样       : 是
去除首尾静音块               : 否
在CRC 计算中使用了空样本       : 是
已用接口                  : Win NT 及 2000 本地 Win32 接口

所用输出模式:   : 用户定义的编码器
已选比特率     : 768 kBit/s
质量        : 高
添加 ID3 标签 : 否
命令行压缩器    : C:\Program Files (x86)\Exact Audio Copy\FLAC\FLAC.EXE
附加命令行参数:  : -6 -V -T "ARTIST=%artist%" -T "TITLE=%title%" -T "ALBUM=%albumtitle%" -T "DATE=%year%" -T "TRACKNUMBER=%tracknr%" -T "GENRE=%genre%" -T "COMMENT=%comment%" -T "BAND=%albuminterpret%" -T "ALBUMARTIST=%albuminterpret%" -T "COMPOSER=%composer%" %haslyrics%--tag-from-file=LYRICS="%lyricsfile%"%haslyrics% -T "DISCNUMBER=%cdnumber%" -T "TOTALDISCS=%totalcds%" -T "TOTALTRACKS=%numtracks%" %hascover%--picture="%coverfile%"%hascover% %source% -o %dest%


已抓取 CD 的 TOC

     音轨 |    起始    |    长度    |  起始扇区  |  结束扇区  
    --------------------------------------------
      1 |  0:00.00 |  2:24.04 |      0 |  10803
      2 |  2:24.04 |  4:22.66 |  10804 |  30519
      3 |  6:46.70 |  3:53.02 |  30520 |  47996
      4 | 10:39.72 |  4:31.01 |  47997 |  68322
      5 | 15:10.73 |  2:45.37 |  68323 |  80734
      6 | 17:56.35 |  6:27.62 |  80735 | 109821
      7 | 24:24.22 |  4:07.22 | 109822 | 128368
      8 | 28:31.44 |  5:07.09 | 128369 | 151402
      9 | 33:38.53 |  4:10.72 | 151403 | 170224
    10 | 37:49.50 |  5:33.21 | 170225 | 195220
    11 | 43:22.71 |  6:15.01 | 195221 | 223346


范围状态及错误

已选择范围

     文件名 E:\痛苦的信仰 - 这是个问题?.wav

     峰值电平 95.6 %
     抓取速度 3.0 X
     范围质量 100.0 %
     复制 CRC 06C6A226
     复制成功

没有错误发生


AccurateRip 摘要

音轨  1  不能准确地校验 (确认 1)  [AC35835E], 返回 AccurateRip [045492D1]  (AR v2)
音轨  2  不能准确地校验 (确认 1)  [48956689], 返回 AccurateRip [F2C5BE4D]  (AR v2)
音轨  3  不能准确地校验 (确认 1)  [3F5A888E], 返回 AccurateRip [CA6B6D03]  (AR v2)
音轨  4  不能准确地校验 (确认 1)  [C54A97CD], 返回 AccurateRip [406171F1]  (AR v2)
音轨  5  不能准确地校验 (确认 1)  [8925B8B8], 返回 AccurateRip [895333A3]  (AR v2)
音轨  6  不能准确地校验 (确认 1)  [E6CD6650], 返回 AccurateRip [F35B3E44]  (AR v2)
音轨  7  不能准确地校验 (确认 1)  [FA7E0ADD], 返回 AccurateRip [8D06006D]  (AR v2)
音轨  8  不能准确地校验 (确认 1)  [05BC53F0], 返回 AccurateRip [7EA9C191]  (AR v2)
音轨  9  不能准确地校验 (确认 1)  [F88E4693], 返回 AccurateRip [7F7ADE8F]  (AR v2)
音轨 10  不能准确地校验 (确认 1)  [36113948], 返回 AccurateRip [FC755972]  (AR v2)
音轨 11  不能准确地校验 (确认 1)  [289C0316], 返回 AccurateRip [FA35714B]  (AR v2)

没有音轨被准确核实
你的版本可能与数据库的版本不同

状态报告结尾

---- CUETools DB Plugin V2.1.6

[CTDB TOCID: kp15aSvKGc.PHuOmMXss7F.0ZVA-] found
Submit result: kp15aSvKGc.PHuOmMXss7F.0ZVA- has been confirmed
Track | CTDB Status
  1   | (15/15) Accurately ripped
  2   | (15/15) Accurately ripped
  3   | (15/15) Accurately ripped
  4   | (15/15) Accurately ripped
  5   | (15/15) Accurately ripped
  6   | (15/15) Accurately ripped
  7   | (15/15) Accurately ripped
  8   | (15/15) Accurately ripped
  9   | (15/15) Accurately ripped
10   | (15/15) Accurately ripped
11   | (14/15) Accurately ripped


游客,如果您要查看本帖隐藏内容请回复


提取码.txt

7 Bytes, 阅读权限: 255, 下载次数: 0

售价: 500 音乐币  [记录]  [购买]

回复

使用道具 举报

发表于 2021-4-8 09:29:18 | 显示全部楼层
分轨还是整轨?
回复 支持 反对

使用道具 举报

您需要登录后才可以回帖 登录 | 中文注册

本版积分规则

QQ|小黑屋|手机版|Archiver|音像图书论坛  

GMT+8, 2021-4-19 05:27 , Processed in 0.221259 second(s), 27 queries .

Powered by Discuz! X3.4

© 2001-2017 Comsenz Inc.

快速回复 返回顶部 返回列表